dead-donkey.com
20.02.18 Fangoria returns!
21.07.13 Nightbreed: The Cabal...
16.02.13 Fist of Jesus (2013)
15.09.12 Videodrome remake
08.09.12 phpBB upgrade and ser...
05.08.12 Site updates and patc...
09.06.12 Mad God on Kickstarte...
23.05.12 Carmageddon on Kickst...
29.04.12 Mel Gibson in Machete...
29.04.12 Forum registrations o...
21.04.12 Prometheus
06.02.12 Dead-Donkey Twitter,...
14.07.18 A Quiet Place (2018)
08.07.18 Constantine - Season 1...
07.07.18 Heretics, The (2017)
01.07.18 Bodysnatch (2018)
30.06.18 Tag (2015)
24.06.18 Slumber (2017)
Navigation
Mon 16 Jul, 2018
· Site Map
· Frontpage
· Scifi Forums
· HHAH Forums
· Fileheaven Forums
 
Edonkey Links
· Movies
· Games
· Series
· Collections
· Old Movie Archive
 
News
· All
· Site News
· Horror News
· Movie News
· Games News
· P2P News
· News Archive
 
Reviews
· Movie Reviews
· Game Reviews
· Series Reviews
 
Help
· Emule FAQ
· Encoding FAQ
· Playback / Codec FAQ
· Site FAQ
 
Downloads
· Client Downloads
· Codec Downloads
· Utility Downloads
· Misc Downloads
 
Links
· P2P Links
· Horror Links
· Movie Links
· Resource Links
 
Soultaker (1990)


Quote:
http://i224.photobucket.com/albums/dd139/redveil/Soultaker%201990/SoultakerDVDCover.jpg



Amazon.Com Wrote:
When four teenagers are seriously injured in an auto accident, a spectral man dressed in black (Joe Estevez) arrives to claim their souls. But it seems that the Soultaker has arrived too soon; as he tries to draw their spirits from their bodies, it becomes evident that two of the kids, Natalie (Vivian Schilling) and Zach (Gregg Thomsen), aren't actually dead, but merely comatose and will soon recover. The Soultaker is determined to claim four souls, no matter how many have actually passed on, and he finds himself locked in a desperate struggle to take the other two victims with him, whether they like it or not.


---------------------------- General ------------------------------

Complete name : Soultaker.[1990].DVDrip.XviD.avi
Format : AVI
Format/Info : Audio Video Interleave
File size : 701 MiB
Duration : 1h 34mn
Overall bit rate : 1033 Kbps
Writing library : VirtualDub build 30091/release

----------------------------- Video -------------------------------
Format : MPEG-4 Visual
Format profile : Streaming Video@L1
Format settings, BVOP : Yes
Format settings, QPel : No
Format settings, GMC : No warppoints
Format settings, Matrix : Custom
Codec ID : XVID
Codec ID/Hint : XviD
Duration : 1h 34mn
Bit rate : 896 Kbps
Width : 576 pixels
Height : 432 pixels
Display aspect ratio : 4/3
Frame rate : 23.977 fps
Original frame rate : 23.976 fps
Resolution : 8 bits
Colorimetry : 4:2:0
Scan type : Progressive
Bits/(Pixel*Frame) : 0.150
Stream size : 608 MiB (87%)
Writing library : XviD 50

----------------------------- Sound -------------------------------
Format : MPEG Audio
Format version : Version 1
Format profile : Layer 3
Codec ID : 55
Codec ID/Hint : MP3
Duration : 1h 34mn
Bit rate mode : Constant
Bit rate : 128 Kbps
Channel(s) : 2 channels
Sampling rate : 48.0 KHz
Resolution : 16 bits
Stream size : 86.9 MiB (12%)
Alignment : Split accross interleaves
Interleave, duration : 42 ms (1.00 video frame)
Interleave, preload duration : 500 ms


http://i224.photobucket.com/albums/dd139/redveil/Soultaker%201990/soul1990_01.jpg







Director:
Michael Rissi

Cast:
Joe Estevez
Vivian Schilling
Gregg Thomsen
Robert Z'Dar

ED2K download link:
Soultaker.[1990].DVDrip.XviD.avi (701 MB) [Stats]

Thanks to:
whoever originally ripped this - for the crappy rip that I fixed

Format: DivX/XviD
Source: DVD
Category: Supernatural
Sub-Category: Ghost
Date: 06 Jan, 2010
Hits: 2624
Score: None
Submitter: RedVeil
Add this entry to facebook Add this entry to Del.icio.us Add this entry to stumbleupon
View original forum thread: Soultaker (1990) (9 Replies)
Advertisement
 
Donation
· Help out
· Donations
· Affilate Schemes
· Feedback
 
Site Search

[Advanced Search]
 
Polls
What is the most important factor that makes you watch a horror movie?
IMDb rating or comments
Cover or poster (design, gore, atmosphere)
Screenshot pictures taken from the movie
Plot outline (background story)
Posts on dead-donkey rating the movie as good or bad
Persons involved (actors, producer, director)
Something else ... I will post it below.
  
pollcode.com free polls
 
Theme
 
Login
Username:

Password:


[Not Registered?]
[Forgot Password?]
 

Disclaimer
The content of this website was created for dead-donkey.com, but may be published freely with reference.
Submitted reviews are owned by the original author who should be contacted for permission on reproduction or publication. All referenced movies, games, and literature are property of their respective owners.
All ed2k links submitted are unfiltered, unmoderated, and unedited, and are provided as-is from hashlinks found freely on the edonkey2000 network and exist regardless of this site.
Their validity, legality and content is subject to the end users usage. Any harm encounted through such use is the responsability of the user.


This site's code was written by Spud The Destroyer for www.dead-donkey.com 2005+