dead-donkey.com
20.02.18 Fangoria returns!
21.07.13 Nightbreed: The Cabal...
16.02.13 Fist of Jesus (2013)
15.09.12 Videodrome remake
08.09.12 phpBB upgrade and ser...
05.08.12 Site updates and patc...
09.06.12 Mad God on Kickstarte...
23.05.12 Carmageddon on Kickst...
29.04.12 Mel Gibson in Machete...
29.04.12 Forum registrations o...
21.04.12 Prometheus
06.02.12 Dead-Donkey Twitter,...
11.11.19 Warning Sign (1985)
10.11.19 Tone-deaf (2019)
09.11.19 Strange Nature (2018)
08.11.19 Piranha (2010)
07.11.19 Trench 11 (2017)
05.11.19 Cat Sick Blues (2015)
Navigation
Sun 17 Nov, 2019
· Site Map
· Frontpage
· Scifi Forums
· HHAH Forums
· Fileheaven Forums
 
Edonkey Links
· Movies
· Games
· Series
· Collections
· Old Movie Archive
 
News
· All
· Site News
· Horror News
· Movie News
· Games News
· P2P News
· News Archive
 
Reviews
· Movie Reviews
· Game Reviews
· Series Reviews
 
Help
· Emule FAQ
· Encoding FAQ
· Playback / Codec FAQ
· Site FAQ
 
Downloads
· Client Downloads
· Codec Downloads
· Utility Downloads
· Misc Downloads
 
Links
· P2P Links
· Horror Links
· Movie Links
· Resource Links
 
Future War (1997)

Comment
Freedom fighters versus bad guys with toy dinosaurs. Lots of fights with cyborgs too. One advice: don't take it seriously!

Quote:


http://www.imdb.com/title/tt0113135/

Code:
A race of evil cyborgs kidnap humans from Earth's future to use as slaves, and take dinosaurs from the past to use as trackers. One of their slaves, the Runaway, escapes and makes his way to present-day Los Angeles. There he must fend off the cyborgs and their trackers, the police, and the government, befriended by a prostitute-turned-nun who runs a halfway house.


Code:
Video
ID : 0
Format : MPEG-4 Visual
Format profile : Streaming Video@L1
Format settings, BVOP : Yes
Format settings, QPel : No
Format settings, GMC : No warppoints
Format settings, Matrix : Custom
Codec ID : XVID
Codec ID/Hint : XviD
Duration : 1h 21mn
Bit rate : 1 068 Kbps
Width : 544 pixels
Height : 400 pixels
Display aspect ratio : 4/3
Frame rate : 25.000 fps
Resolution : 24 bits
Colorimetry : 4:2:0
Scan type : Progressive
Bits/(Pixel*Frame) : 0.196
Stream size : 625 MiB (84%)
Writing library : XviD 1.2.1 (UTC 2008-12-04)

Audio
ID : 1
Format : AC-3
Format/Info : Audio Coding 3
Codec ID : 2000
Duration : 1h 21mn
Bit rate mode : Constant
Bit rate : 192 Kbps
Channel(s) : 2 channels
Channel positions : L R
Sampling rate : 48.0 KHz
Stream size : 112 MiB (15%)
Alignment : Split accross interleaves
Interleave, duration : 40 ms (1.00 video frame)
Interleave, preload duration : 500 ms









Future.War.1997.FS.DVDrip.XviD.avi (743 MB) [Stats]

to be honest...i tried the transloading process first... :wacky: :D so happy to have dead-donkey back :beerchug:

Format: DivX/XviD
Source: DVD
Category: Sci-fi
Sub-Category: None
Date: 27 Nov, 2009
Hits: 3929
Score: None
Submitter: Slayer
Add this entry to facebook Add this entry to Del.icio.us Add this entry to stumbleupon
View original forum thread: Future War (1997) (Action/Fantasy/Sci-Fi/Thriller) (DVDrip) (3 Replies)
Advertisement
 
Donation
· Help out
· Donations
· Affilate Schemes
· Feedback
 
Site Search

[Advanced Search]
 
Polls
What is the most important factor that makes you watch a horror movie?
IMDb rating or comments
Cover or poster (design, gore, atmosphere)
Screenshot pictures taken from the movie
Plot outline (background story)
Posts on dead-donkey rating the movie as good or bad
Persons involved (actors, producer, director)
Something else ... I will post it below.
  
pollcode.com free polls
 
Theme
 
Login
Username:

Password:


[Not Registered?]
[Forgot Password?]
 

Disclaimer
The content of this website was created for dead-donkey.com, but may be published freely with reference.
Submitted reviews are owned by the original author who should be contacted for permission on reproduction or publication. All referenced movies, games, and literature are property of their respective owners.
All ed2k links submitted are unfiltered, unmoderated, and unedited, and are provided as-is from hashlinks found freely on the edonkey2000 network and exist regardless of this site.
Their validity, legality and content is subject to the end users usage. Any harm encounted through such use is the responsability of the user.


This site's code was written by Spud The Destroyer for www.dead-donkey.com 2005+