dead-donkey.com
20.02.18 Fangoria returns!
21.07.13 Nightbreed: The Cabal...
16.02.13 Fist of Jesus (2013)
15.09.12 Videodrome remake
08.09.12 phpBB upgrade and ser...
05.08.12 Site updates and patc...
09.06.12 Mad God on Kickstarte...
23.05.12 Carmageddon on Kickst...
29.04.12 Mel Gibson in Machete...
29.04.12 Forum registrations o...
21.04.12 Prometheus
06.02.12 Dead-Donkey Twitter,...
16.12.18 Bugs (2003)
15.12.18 Predator, The (2018)
09.12.18 Guardians (2017)
08.12.18 Lockout (2012)
01.12.18 Meatball Machine Kodoku...
26.11.18 What Still Remains (201...
Navigation
Wed 19 Dec, 2018
· Site Map
· Frontpage
· Scifi Forums
· HHAH Forums
· Fileheaven Forums
 
Edonkey Links
· Movies
· Games
· Series
· Collections
· Old Movie Archive
 
News
· All
· Site News
· Horror News
· Movie News
· Games News
· P2P News
· News Archive
 
Reviews
· Movie Reviews
· Game Reviews
· Series Reviews
 
Help
· Emule FAQ
· Encoding FAQ
· Playback / Codec FAQ
· Site FAQ
 
Downloads
· Client Downloads
· Codec Downloads
· Utility Downloads
· Misc Downloads
 
Links
· P2P Links
· Horror Links
· Movie Links
· Resource Links
 
Silencers, The (1996)

Comment
A highly entertaining science fiction movie with action, sentimental moments and cool humanoid like aliens trying to invade the earth.

I saw this movie as a child and it impressed me very much. Jack Scalia plays a Secret Service agent, who gets the task to protect a senator from being assassinated during an official visit in a church. It looks like a simple mission, but suddenly some strange men dressed in black appear. They start to hunt the senator and try to kill him. This part of the movie ends with a very cool subway action scene.

Later on agent Rafferty meets a men pretending to come from a different planet trying to save the earth from getting invaded. But in order to succeed he needs help from the government. Unfortunately some of the government's people get replaced by clones of the aliens. They plan to support a secret government project that would open an inter-dimensional gate to another planet, from which the alien invasion should start.
Now it's the job of Rafferty and his humanoid "friend" to prevent this from happening.

The movie is very cool. It has lots of action scenes and makes you have sympathy with the heroes, which is always a good thing. I forgot to mention that the aliens have this cool "feature" of their eyes turning totally black - it looks very spooky. They also talk a strange language by the way.

So the movie has everything it needs to make you like it and I guarantee you: you will like it!

Quote:
http://i224.photobucket.com/albums/dd139/redveil/The%20Silencers%201996/TheSilencersDVDCover.png



Dragan Antulov on IMDb Wrote:
U.S. Senator is assassinated by Men in Black, mysterious organization which surpresses all knowledge about UFOs. Agent Rafferty from U.S. Secret Service will confront them and discover the sinister truth. The only person that can help him comes from another world.


---------------------------------- General -----------------------------------

Complete name : The.Silencers.[1996].FS.DVDrip.XviD+MP3.avi
Format : AVI
Format/Info : Audio Video Interleave
File size : 700 MiB
Duration : 1h 36mn
Overall bit rate : 1010 Kbps

----------------------------------- Video ------------------------------------
Format : MPEG-4 Visual
Format profile : Streaming Video@L1
Format settings, BVOP : Yes
Format settings, QPel : No
Format settings, GMC : No warppoints
Format settings, Matrix : Custom
Codec ID : XVID
Codec ID/Hint : XviD
Duration : 1h 36mn
Bit rate : 869 Kbps
Width : 576 pixels
Height : 432 pixels
Display aspect ratio : 4/3
Frame rate : 25.000 fps
Resolution : 8 bits
Colorimetry : 4:2:0
Scan type : Progressive
Bits/(Pixel*Frame) : 0.140
Stream size : 603 MiB (86%)
Writing library : XviD 50

----------------------------------- Audio ------------------------------------
Format : MPEG Audio
Format version : Version 1
Format profile : Layer 3
Codec ID : 55
Codec ID/Hint : MP3
Duration : 1h 36mn
Bit rate mode : Constant
Bit rate : 128 Kbps
Channel(s) : 2 channels
Sampling rate : 48.0 KHz
Resolution : 16 bits
Stream size : 88.7 MiB (13%)
Alignment : Aligned on interleaves
Interleave, duration : 24 ms (0.60 video frame)
Interleave, preload duration : 480 ms


http://i224.photobucket.com/albums/dd139/redveil/The%20Silencers%201996/SILE1996_01.jpg





Director:
Richard Pepin

Cast:
Jack Scalia
Dennis Christopher
Carlos Lauchu
Lucinda Weist
Clarence Williams III

ED2K download link:
The.Silencers.[1996].FS.DVDrip.XviD MP3.avi (700 MB) [Stats]

Thanks to:
elchupacabra - for his help in the ripping process
elguaxo - for his help and the French video stream (without hardcoded subtitles)
DoSSeR - for the English audio stream (shame on you using hardcoded subtitles!)

Notes:
This is a combination of the video and audio stream from two different rips.
The video had to be cropped correctly and some filters were applied to improve the result.
No rippers name is contained in the file name, because none deserves to be mentioned. Sorry!

Format: DivX/XviD
Source: DVD
Category: Sci-fi
Sub-Category: B-Movie
Date: 10 Apr, 2009
Hits: 3832
Score: 8/10
Submitter: RedVeil
Add this entry to facebook Add this entry to Del.icio.us Add this entry to stumbleupon
View original forum thread: The Silencers (1996) (Sci-Fi/Thriller) (DVDrip) (2 Replies)
Advertisement
 
Donation
· Help out
· Donations
· Affilate Schemes
· Feedback
 
Site Search

[Advanced Search]
 
Polls
What is the most important factor that makes you watch a horror movie?
IMDb rating or comments
Cover or poster (design, gore, atmosphere)
Screenshot pictures taken from the movie
Plot outline (background story)
Posts on dead-donkey rating the movie as good or bad
Persons involved (actors, producer, director)
Something else ... I will post it below.
  
pollcode.com free polls
 
Theme
 
Login
Username:

Password:


[Not Registered?]
[Forgot Password?]
 

Disclaimer
The content of this website was created for dead-donkey.com, but may be published freely with reference.
Submitted reviews are owned by the original author who should be contacted for permission on reproduction or publication. All referenced movies, games, and literature are property of their respective owners.
All ed2k links submitted are unfiltered, unmoderated, and unedited, and are provided as-is from hashlinks found freely on the edonkey2000 network and exist regardless of this site.
Their validity, legality and content is subject to the end users usage. Any harm encounted through such use is the responsability of the user.


This site's code was written by Spud The Destroyer for www.dead-donkey.com 2005+